#TITLE:Destined Marionette;
#SUBTITLE:;
#ARTIST:BeatMario;
#TITLETRANSLIT:;
#SUBTITLETRANSLIT:;
#ARTISTTRANSLIT:;
#CREDIT:;
#BANNER:destinedmarionette-bn.jpg;
#BACKGROUND:destinedmarionette.jpg;
#LYRICSPATH:;
#CDTITLE:cdtitle.PNG;
#MUSIC:marionette.mp3;
#OFFSET:-0.027;
#SAMPLESTART:84.980;
#SAMPLELENGTH:10.660;
#SELECTABLE:YES;
#BPMS:0.000=185.940;
#STOPS:;
#BGCHANGES:;
// cache tags:
#FIRSTBEAT:0.000;
#LASTBEAT:392.000;
#SONGFILENAME:Songs/nhac/Destined Marionette/LunaMarionette.sm;
#HASMUSIC:1;
#HASBANNER:1;
#MUSICLENGTH:143.516;
// end cache tags

//---------------dance-single - Blank----------------
#NOTES:
     dance-single:
     Blank:
     Hard:
     11:
     1.000,1.000,1.000,1.000,0.348,739.000,261.000,183.000,0.000,15.000:

2010
0000
3200
0000
0302
0023
0230
0302
,
0003
0002
0123
2030
0000
3200
0000
2300
,
3201
0000
0320
0000
0032
0023
0230
0320
,
0030
0020
0231
2300
0000
3002
0010
0203
,
2310
0000
3200
0000
0302
0023
0230
0320
,
0030
0020
0231
2300
0000
3002
0000
2003
,
3210
0000
0320
0000
0032
0203
2300
3020
,
0030
0020
0231
2300
0000
3002
0010
0203
,
1301
0000
0100
0000
0011
0100
1000
0010
,
1100
0010
0100
1000
1010
0001
0000
1000
,
0110
0000
0100
0000
0101
0010
0100
0001
,
1010
0001
1000
0100
0011
1000
0000
0001
,
1100
0000
0010
0000
0101
0010
0100
0001
,
0011
0001
1000
0100
1010
0010
0000
0100
,
1001
0000
1000
0000
0110
1000
0001
0100
,
0011
0100
1100
0001
0011
1000
1100
0010
,
1001
0000
0010
0000
0100
0000
0010
0000
1000
0010
1000
0010
1100
0000
0011
0000
,
1000
0000
0010
0000
0100
0000
0010
0000
1000
0001
1000
0001
0110
0000
1001
0000
,
0100
0000
0010
0000
0100
0000
0010
0000
0001
0010
0001
0010
0101
0000
1010
0000
,
0000
0000
0011
0000
0011
0000
1100
0000
0010
0000
0001
0010
0100
1000
0001
0010
,
0000
0000
1000
0000
0001
0000
1000
0000
0100
1000
0100
1000
0101
0000
1010
0000
,
0100
0000
1000
0000
0001
0000
1000
0000
0100
0010
0100
0010
1001
0000
0110
0000
,
0001
0000
1000
0000
0001
0000
1000
0000
0010
1000
0010
1000
0011
0000
1100
0000
,
0000
0000
1010
0000
1010
0000
0101
0000
1000
0000
0010
1000
0011
0000
1100
0000
,
1001
0000
0100
0000
0010
0000
0100
0000
0001
0100
0001
0100
0011
0000
1100
0000
,
0001
0000
0100
0000
0010
0000
0100
0000
0001
1000
0001
1000
0110
0000
1001
0000
,
0010
0000
0100
0000
0010
0000
0100
0000
1000
0100
1000
0100
1010
0000
0101
0000
,
0000
0000
1100
0000
1100
0000
0011
0000
0100
0000
1000
0100
0010
0001
1000
0100
,
0000
0000
0001
0000
1000
0000
0001
0000
0010
0001
0010
0001
1010
0000
0101
0000
,
0010
0000
0001
0000
1000
0000
0001
0000
0010
0100
0010
0100
1001
0000
0110
0000
,
1000
0000
0001
0000
1000
0000
0001
0000
0100
0001
0100
0001
1100
0000
0011
0000
,
0000
0000
1010
0000
0110
0000
0110
0000
0101
0000
1000
0001
0210
0000
1302
0000
,
0023
0000
0000
2030
3002
2003
3200
0320
,
0030
0020
0230
2300
0000
3002
0203
0000
,
0320
0000
0230
0000
2300
3002
2003
3200
,
0000
0302
2003
3020
0000
0000
0032
0000
,
0023
0000
0000
2030
3002
2003
3200
0320
,
0030
0020
0230
2300
0000
3002
0203
0000
,
0320
0000
0230
0000
0302
0000
0203
0320
,
0030
0020
2030
0000
3002
0000
0203
0000
,
0320
0000
0000
2030
3002
2003
3200
0320
,
0030
0020
0230
2300
0000
3002
0203
0000
,
0320
0000
0230
0000
2300
3002
2003
3200
,
0000
0302
2003
3020
0000
0000
0032
0000
,
0023
0000
0000
2030
3002
2003
3200
0320
,
0030
0020
0230
2300
0000
3002
0203
0320
,
0032
0000
2003
0000
3020
0000
0230
0302
,
0000
2003
3200
2300
3000
0000
0010
0010
,
2000
0001
0100
0001
0010
0000
3200
0000
1000
0001
1300
0001
1000
0000
0002
0000
,
0010
1000
0023
1000
0032
0000
0023
0000
0001
1000
0001
1000
0230
0000
0320
0000
,
0032
1000
0010
1000
0010
0000
2003
0000
0001
0010
0001
0010
3002
0000
0203
0000
,
1000
0001
1000
0000
0320
0001
1000
0000
0230
0001
1000
0001
2300
0000
3002
0000
,
2003
0010
0001
0010
0001
0000
3200
0000
0001
1000
0001
1000
0302
0000
2003
0000
,
0001
0010
3002
0010
0203
0000
0320
0000
0100
0001
0100
0001
0230
0000
2300
0000
,
3002
0000
0000
2003
0011
0000
3200
0000
2300
0000
0000
3200
1001
0000
0320
0000
,
0132
0100
0100
0100
,
2013
0000
0000
0010
0000
0000
0010
0000
0010
0000
0000
0010
0000
0000
0010
0000
,
3120
0100
0100
0100
0100
0100
0100
0100
,
0001
1000
0001
1000
0001
1000
0001
1000
0131
0000
0011
0000
0101
0000
0011
0000
,
1010
1100
0011
1000
0110
0011
1100
1100
,
0010
0101
0011
1000
0110
0001
1100
0110
,
0011
1100
0101
1000
0011
0110
1100
0101
,
1100
1010
1100
0011
0101
1000
0011
0101
,
1100
1010
0110
0100
0101
0011
1100
1010
,
1100
1010
0110
0101
1001
0100
1100
0101
,
0011
1100
1010
1000
0011
1100
0110
0011
,
1000
0110
0011
1010
1100
0010
0011
1010
,
1100
0101
1010
0100
1001
1010
0101
0101
,
1000
0011
1010
0100
1001
0010
0101
1001
,
1010
0101
0011
0100
1010
1001
0101
0011
,
0101
1100
0101
1010
0011
0100
1010
0011
,
0101
1100
1001
0001
0011
1010
0101
1100
,
0101
1100
1001
0011
0110
0001
0101
0011
,
1010
0101
1100
0100
1010
0101
1001
1010
,
0100
1001
1010
1100
0102
0000
0023
0000
,
0230
0000
0000
0000
0000
2300
0000
3200
,
0320
0000
0230
0000
2300
0000
3020
0230
,
0000
0302
0000
0000
0000
0000
0000
0000
,
0000
0000
0000
0000
0000
0000
0000
0000
0003
0000
0002
0000
0000
0023
0000
0000
,
0230
0000
0000
0000
0000
0000
0000
0000
0000
0000
0320
0000
0000
0230
0000
0000
,
2300
0000
0000
0000
3020
0000
0000
0200
,
0330
0000
0011
0000
0011
0000
1100
0000
0010
0001
0010
0001
1010
0000
0101
0000
,
0000
0000
1001
0000
1001
0000
1100
0000
0001
0010
0100
1000
0011
0000
1100
0000
,
0000
0000
0011
0000
0011
0000
1100
0000
0010
1000
0010
1000
0011
0000
1010
0000
,
0000
0000
1001
0000
1001
0000
0110
0000
0001
0010
0100
1000
0100
0010
0001
1000
,
0100
0000
0101
0000
0101
0000
1100
0000
0001
1000
0001
1000
0011
0000
1010
0000
,
0000
0000
0011
0000
0011
0000
1001
0000
1000
0010
1000
0010
1001
0000
0110
0000
,
0000
0000
1010
0000
1010
0000
0101
0000
1000
0100
1000
0100
1001
0000
1010
0000
,
0000
0000
0011
0000
0101
0000
0101
0000
0110
0000
0010
1000
0101
0000
1100
0000
,
0000
0000
0101
0000
0101
0000
1010
0000
0001
0100
0001
0100
0011
0000
1100
0000
,
0000
0000
0110
0000
0110
0000
1010
0000
0100
0001
1000
0010
0101
0000
1010
0000
,
0000
0000
0101
0000
0101
0000
1010
0000
0001
0010
0001
0010
0101
0000
0011
0000
,
0000
0000
0110
0000
0110
0000
1001
0000
0100
0001
1000
0010
1000
0001
0100
0010
,
1000
0000
1100
0000
1100
0000
1010
0000
0100
0010
0100
0010
0101
0000
0011
0000
,
0000
0000
0101
0000
0101
0000
0110
0000
0010
0001
0010
0001
0110
0000
1001
0000
,
0000
0000
0011
0000
0011
0000
1100
0000
0010
1000
0010
1000
0110
0000
0011
0000
,
0000
0000
0101
0000
1100
0000
1100
0000
1001
0000
0001
0010
1100
0000
1010
0000
,
0022
0000
0000
0000
,
0033
0000
0000
0000
;
